Ugrás a tartalomhoz

Driven By Lust 2 (2017)XXX.DVDRip

- - - - - xDisk data.hu

  • Nem indíthatsz új témát
  • Hozzászólás írásához be kell jelentkezni!
No replies to this topic

#1
bubus66

bubus66

    Profi fórumos

  • Feltöltő
  • PipaPipaPipaPipaPipa
  • 725 hozzászólás
  • 143 köszönet

Driven By Lust 2 (2017) XXX.DVDRip


kép
kép


Director: Evil Playground

General
Complete name    : DRIVEN BY LUST 2.MP4.mp4
Format : MPEG-4
Format profile   : Base Media
Codec ID : isom (isom/iso2/avc1/mp41)
File size    : 556 MiB
Duration : 1 h 27 min
Overall bit rate : 884 kb/s
Writing application : Lavf57.56.101

Video
ID   : 1
Format   : AVC
Format/Info : Advanced Video Codec
Format profile   : [email protected]
Format settings, CABAC   : Yes
Format settings, RefFrames  : 5 frames
Codec ID : avc1
Codec ID/Info    : Advanced Video Coding
Duration : 1 h 27 min
Bit rate : 768 kb/s
Width    : 852 pixels
Height   : 480 pixels
Display aspect ratio : 16:9
Original display aspect rat : 16:9
Frame rate mode : Constant
Frame rate   : 30.000 FPS
Color space : YUV
Chroma subsampling   : 4:2:0
Bit depth    : 8 bits
Scan type    : Progressive
Bits/(Pixel*Frame)   : 0.063
Stream size : 486 MiB (87%)
Writing library : x264

Audio
ID   : 2
Format   : AAC
Format/Info : Advanced Audio Codec
Format profile   : LC
Codec ID : 40
Duration : 1 h 27 min
Bit rate mode    : Constant
Bit rate : 107 kb/s
Channel(s)   : 2 channels
Channel positions    : Front: L R
Sampling rate    : 22.05 kHz
Frame rate   : 21.533 FPS (1024 SPF)
Compression mode : Lossy
Stream size : 67.2 MiB (12%)
Default : Yes
Alternate group : 1


kép

Please Login or Register to see this Hidden Content


kép

Please Login or Register to see this Hidden Content


kép

Please Login or Register to see this Hidden Content


kép

Please Login or Register to see this Hidden Content







Also tagged with one or more of these keywords: xDisk, data.hu

0 felhasználó olvassa ezt a témát.

0 felhasználó, 0 vendég, 0 anonim felhasználó