Ugrás a tartalomhoz

Privát DVD 076XXX.DVDRip

- - - - - data.hu

  • Nem indíthatsz új témát
  • Hozzászólás írásához be kell jelentkezni!
No replies to this topic

#1
bubus66

bubus66

    Profi fórumos

  • Feltöltő
  • PipaPipaPipaPipaPipa
  • 671 hozzászólás
  • 128 köszönet

Privát DVD 076 XXX.DVDRip


kép
kép


General
Complete name    : C: Privát Dvd 76. - .MP4
Format   : MPEG-4
Format profile   : Base Media
Codec ID     : isom (isom/iso2/avc1/mp41)
File size    : 712 MiB
Duration     : 2 h 30 min
Overall bit rate     : 661 kb/s
Writing application : Lavf57.83.100

Video
ID   : 1
Format   : AVC
Format/Info       : Advanced Video Codec
Format profile   : [email protected]
Format settings : CABAC / 5 Ref Frames
Format settings, CABAC   : Yes
Format settings, ReFrames   : 5 frames
Codec ID     : avc1
Codec ID/Info    : Advanced Video Coding
Duration     : 2 h 30 min
Bit rate     : 515 kb/s
Width    : 854 pixels
Height   : 480 pixels
Display aspect ratio     : 16:9
Original display aspect rat : 16:9
Frame rate mode : Constant
Frame rate   : 25.000 FPS
Color space : YUV
Chroma subsampling   : 4:2:0
Bit depth    : 8 bits
Scan type    : Progressive
Bits/(Pixel*Frame)   : 0.050
Stream size : 555 MiB (78%)
Writing library : x264

Audio
ID   : 2
Format   : AAC
Format/Info : Advanced Audio Codec
Format profile   : LC
Codec ID     : mp4a-40-2
Duration     : 2 h 30 min
Duration_LastFrame   : -19 ms
Bit rate mode    : Constant
Bit rate     : 140 kb/s
Channel(s)   : 2 channels
Channel positions    : Front: L R
Sampling rate    : 48.0 kHz
Frame rate   : 46.875 FPS (1024 SPF)
Compression mode     : Lossy
Stream size : 150 MiB (21%)
Default : Yes
Alternate group : 1


kép

Please Login or Register to see this Hidden Content


kép

Please Login or Register to see this Hidden Content



Megköszönte 1 Tag:
jozsoka




Also tagged with one or more of these keywords: data.hu

0 felhasználó olvassa ezt a témát.

0 felhasználó, 0 vendég, 0 anonim felhasználó